منتدى الطنطاوية ميكس



 
الرئيسيةاليوميةمكتبة الصورس .و .جبحـثالأعضاءالمجموعاتالتسجيلدخول

شاطر | 
 

 حصريا فيلم الاكشن Alex Cross (2012) CAM x264 AC3-BBnRG على منتديات الطنطاوية ميكس وبس

اذهب الى الأسفل 
كاتب الموضوعرسالة
sHkaWa
رئيس هيئه المنتدى
رئيس هيئه المنتدى
avatar

المشاركات : 493
العمر : 25
الجنس : ذكر
المزاج : loves
الهوايه : no
الدوله : egypti
التعرف : موقع اخر
دعاء المنتدى : دعاء 2
نادك المفضل : zamale

مُساهمةموضوع: حصريا فيلم الاكشن Alex Cross (2012) CAM x264 AC3-BBnRG على منتديات الطنطاوية ميكس وبس   الثلاثاء 23 أكتوبر 2012 - 20:20


Alex Cross (2012) CAM x264 AC3-BBnRG | 575 MB


Format : Matroska
Format version : Version 2
File size : 575 MiB
Duration : 1h 33mn
Overall bit rate : 859 Kbps

Video
ID : 1
Format : AVC
Format/Info : Advanced Video Codec
Format profile : High@L3.0
Format settings, CABAC : Yes
Format settings, ReFrames : 6 frames
Codec ID : V_MPEG4/ISO/AVC
Duration : 1h 33mn
Bit rate : 725 Kbps
Width : 720 pixels
Height : 368 pixels
Display aspect ratio : 1.957
Frame rate mode : Variable
Frame rate : 29.970 fps
Color space : YUV
Chroma subsampling : 4:2:0
Bit depth : 8 bits
Scan type : Progressive
Bits/(Pixel*Frame) : 0.091
Stream size : 478 MiB (83%)
Writing library : x264 core 112

Audio
ID : 2
Format : AC-3
Format/Info : Audio Coding 3
Mode extension : CM (complete main)
Codec ID : A_AC3
Duration : 1h 33mn
Bit rate mode : Constant
Bit rate : 128 Kbps
Channel(s) : 2 channels
Channel positions : Front: L R
Sampling rate : 48.0 KHz
Bit depth : 16 bits
Compression mode : Lossy
Stream size : 85.8 MiB (15%)

Title: Alex Cross (2012)

101 min - Action | Crime | Mystery

Plot:
A homicide detective is pushed to the brink of his moral and physical limits as he tangles with a
ferociously skilled serial killer who specializes in torture and pain.

Buy Premium Account & Support Me To Sharing More Stuff


Download Single Extraction from Extabit.com



[ندعوك للتسجيل في المنتدى أو التعريف بنفسك لمعاينة هذا الرابط]







(وَقُل رَّبِّ اغفِرْ وارْحَمْ وَأَنتَ خَيْرُ الرَّاحِمِينَ)
تابعنا على ...


الرجوع الى أعلى الصفحة اذهب الى الأسفل
معاينة صفحة البيانات الشخصي للعضو http://tantamix.yoo7.com
 
حصريا فيلم الاكشن Alex Cross (2012) CAM x264 AC3-BBnRG على منتديات الطنطاوية ميكس وبس
الرجوع الى أعلى الصفحة 
صفحة 1 من اصل 1
 مواضيع مماثلة
-
» اجدد صور للجاسوسات
» حصريا لعبة Snow cross "موتسيكلات على الجليد" كاملة وبدون تسطيب وعلى اكثر من سيرفر بروابط جامدة جدا (فرصتك)
» رابط نقل مباراة بلجيكا والمانيا , بث مباشر مباراة بلجيكا و المانيا تصفيات كاس اوروبا 2012 , تصفيات كاس يورو 2012
» هل تندلع الحرب العالمية الثالثة سنة 2012
» خيال إنسان فيلم doomsday 2012 مترجم...

صلاحيات هذا المنتدى:لاتستطيع الرد على المواضيع في هذا المنتدى
منتدى الطنطاوية ميكس :: قســـم الافلام الاجنبيـــــة-
انتقل الى:  


هذه الرسالة تفيد أنك غير مسجل .

و يسعدنا كثيرا انضمامك لنا ...

للتسجيل اضغط هـنـا